Miserable Ausgabequalität?!

2004tobinator schrieb am 25.12.2017 um 00:39 Uhr

Guten Tag allerseits! Ich hatte ein kleines hochauflösendes Testvideo geschnitten und wollte es Exportieren. Dann habe ich halt auf Exportieren als MPEG-4 gedrückt und habe in dem Fenster das kommt alles auf Standard gelassen. Dann habe ich es Exportieren lassen und hatte gemerkt, dass die Qualität des Bildes wirklich EXTREM schlecht ist. Daraufhin habe ich es nochmal versucht mit den höchsten Einstellungen (Bei dem Exportfenster) und die Qualität hat sich nicht geändert. Das habe ich mit 2 weiteren Videos ausprobiert und habe gemerkt, dass es immer gleich schlecht ist. Ich hatte den Support angeschrieben, dieser hat mir auch eine E-Mail gesendet, dass ich mal Bilder von den Exporteinstellungen senden soll. Dies habe ich gemacht und ich habe bis heute noch keine E-Mail zurückbekommen. Nun frage ich euch.. Wisst ihr wie man das beheben kann?

Programm: Magix Video Deluxe Premium 2018

Computer:

- Betriebssystem: Microsoft Windows 10 Pro 64 bit

- Prozessor: AMD Ryzen 1700X

- Grafikkarte: Gainward GTX 1060 6GB

Kommentare

FredW schrieb am 25.12.2017 um 08:05 Uhr

@2004tobinator,

Ich hatte ein kleines hochauflösendes Testvideo geschnitten

Ich kenne dein Video nicht, weiß auch nicht was das für ein Video ist. Um die Parameter diese Videos zu erhalten, musst du es zuerst mit MediaInfo ( das kannst du aus dem Netz laden) analysieren. Dabei erhälst du alle wichtigen Daten, die du zum Einstellen deines Exportes u.U. benötigst.

Dann habe ich halt auf Exportieren als MPEG-4 gedrückt und habe in dem Fenster das kommt alles auf Standard gelassen.

Es gibt mehrere Exportmöglichkeiten mit mpeg-4 ... da muss man dann auch entsprechend dem Quellmaterial und dem erwünschten Ziel die korrekte Auswahl treffen.

Dann habe ich es Exportieren lassen und hatte gemerkt, dass die Qualität des Bildes wirklich EXTREM schlecht ist.

Wo hast hast du das festgestellt ...

Daraufhin habe ich es nochmal versucht mit den höchsten Einstellungen (Bei dem Exportfenster) und die Qualität hat sich nicht geändert.

Was auch immer du mit höchste Einstellungen meinst, bleibt rätselhaft. Screenshots würden helfen ...

Wisst ihr wie man das beheben kann?

wie oben beschrieben ... muss muss wissen, wie das Quellmaterial beschaffen ist, dann kann man auch den richtigen und passenden Export über Datei >> exportieren auswählen ...

Viel Erfolg!!!

2004tobinator schrieb am 25.12.2017 um 15:36 Uhr

Ich kenne dein Video nicht, weiß auch nicht was das für ein Video ist. Um die Parameter diese Videos zu erhalten, musst du es zuerst mit MediaInfo ( das kannst du aus dem Netz laden) analysieren. Dabei erhälst du alle wichtigen Daten, die du zum Einstellen deines Exportes u.U. benötigst.

Das Video wurde in 1920x1080 60fps aufgenommen mit einer Videobitrate von 16000 und eine Audio-Samplerate von 48kHz.

Es gibt mehrere Exportmöglichkeiten mit mpeg-4 ... da muss man dann auch entsprechend dem Quellmaterial und dem erwünschten Ziel die korrekte Auswahl treffen.

Wo hast hast du das festgestellt ...

Du musst dir vorstellen, dass das Video verpixelt erscheint, aber nicht normal verpixelt sondern mit großen pixeln. (Sieht so aus als hätte man eine Videobitrate von 1000 dabei Arbeite ich mit einer Bitrate von 16000 Aufnahme und Schneiden)

wie oben beschrieben ... muss muss wissen, wie das Quellmaterial beschaffen ist, dann kann man auch den richtigen und passenden Export über Datei >> exportieren auswählen ...

Ich hatte einen Testvideo gemacht, das alle möglichen Farben mit einer hochauflösenden Textur zeigt. Dabei bewegt sich die Aufnahme.

FredW schrieb am 25.12.2017 um 21:10 Uhr

Ich habe dich gebeten eine Analyse mit MediaInfo durchzuführen, was du ignoriert hast. Ich kann dir dann leider nicht helfen.

Viel Erfolg!

2004tobinator schrieb am 26.12.2017 um 03:52 Uhr

Ich hatte schon alles in den richtigen Einstellungen Exportiert. Hier nochmal ein Bild von dem Programm:

A380 schrieb am 26.12.2017 um 08:35 Uhr

Stelle die Ansicht (View) auf Text und kopiere diesen Text in eine Antwort rein (Strg-C / Strg-V)

geschi schrieb am 26.12.2017 um 08:37 Uhr

Nimm mal Hardwareencoding raus und probier dann nochmals.

 

FredW schrieb am 26.12.2017 um 08:59 Uhr

Und es fehlt noch die Analyse vom exportierten Video, damit man vergleichen kann.

2004tobinator schrieb am 26.12.2017 um 17:47 Uhr

Mir war ein fehler unterlaufen.. Das da oben ist die Analyse von dem Exportierten Video..

Hier ist die Analyse von der Quelle:

General
Complete name                            : D:\Videos\Aufnahme Sat-23.12.2017  23.40 Uhr.mp4
Format                                   : MPEG-4
Format profile                           : Base Media
Codec ID                                 : isom (isom/iso2/avc1/mp41)
File size                                : 168 MiB
Duration                                 : 1 min 28 s
Overall bit rate mode                    : Constant
Overall bit rate                         : 16.0 Mb/s
Writing application                      : Lavf57.84.100

Video
ID                                       : 1
Format                                   : AVC
Format/Info                              : Advanced Video Codec
Format profile                           : High@L5.1
Format settings                          : CABAC / 2 Ref Frames
Format settings, CABAC                   : Yes
Format settings, RefFrames               : 2 frames
Codec ID                                 : avc1
Codec ID/Info                            : Advanced Video Coding
Duration                                 : 1 min 28 s
Bit rate mode                            : Constant
Bit rate                                 : 16.0 Mb/s
Width                                    : 1 920 pixels
Height                                   : 1 080 pixels
Display aspect ratio                     : 16:9
Frame rate mode                          : Constant
Frame rate                               : 60.000 FPS
Color space                              : YUV
Chroma subsampling                       : 4:2:0
Bit depth                                : 8 bits
Scan type                                : Progressive
Bits/(Pixel*Frame)                       : 0.129
Stream size                              : 163 MiB (97%)
Color range                              : Full
Matrix coefficients                      : BT.470 System B, BT.470 System G

Audio #1
ID                                       : 2
Format                                   : AAC
Format/Info                              : Advanced Audio Codec
Format profile                           : LC
Codec ID                                 : mp4a-40-2
Duration                                 : 1 min 28 s
Bit rate mode                            : Constant
Bit rate                                 : 160 kb/s
Channel(s)                               : 2 channels
Channel positions                        : Front: L R
Sampling rate                            : 48.0 kHz
Frame rate                               : 46.875 FPS (1024 SPF)
Compression mode                         : Lossy
Stream size                              : 1.68 MiB (1%)
Title                                    : Audio1
Default                                  : Yes
Alternate group                          : 1

Audio #2
ID                                       : 3
Format                                   : AAC
Format/Info                              : Advanced Audio Codec
Format profile                           : LC
Codec ID                                 : mp4a-40-2
Duration                                 : 1 min 28 s
Bit rate mode                            : Constant
Bit rate                                 : 320 kb/s
Channel(s)                               : 2 channels
Channel positions                        : Front: L R
Sampling rate                            : 48.0 kHz
Frame rate                               : 46.875 FPS (1024 SPF)
Compression mode                         : Lossy
Stream size                              : 3.36 MiB (2%)
Title                                    : Audio2
Default                                  : No
Alternate group                          : 1

hier ist die Analyse von dem Export:

General
Complete name                            : D:\Videos\Qualitest.mp4
Format                                   : MPEG-4
Format profile                           : Base Media
Codec ID                                 : isom (isom/avc1)
File size                                : 162 MiB
Duration                                 : 1 min 28 s
Overall bit rate mode                    : Variable
Overall bit rate                         : 15.4 Mb/s
Encoded date                             : UTC 2017-12-23 22:47:43
Tagged date                              : UTC 2017-12-23 22:47:43

Video
ID                                       : 1
Format                                   : AVC
Format/Info                              : Advanced Video Codec
Format profile                           : High@L4.2
Format settings                          : CABAC / 3 Ref Frames
Format settings, CABAC                   : Yes
Format settings, RefFrames               : 3 frames
Codec ID                                 : avc1
Codec ID/Info                            : Advanced Video Coding
Duration                                 : 1 min 28 s
Bit rate mode                            : Variable
Bit rate                                 : 15.2 Mb/s
Maximum bit rate                         : 16.0 Mb/s
Width                                    : 1 920 pixels
Height                                   : 1 080 pixels
Display aspect ratio                     : 16:9
Frame rate mode                          : Constant
Frame rate                               : 60.000 FPS
Color space                              : YUV
Chroma subsampling                       : 4:2:0
Bit depth                                : 8 bits
Scan type                                : Progressive
Bits/(Pixel*Frame)                       : 0.122
Stream size                              : 159 MiB (99%)
Language                                 : English
Encoded date                             : UTC 2017-12-23 22:47:43
Tagged date                              : UTC 2017-12-23 22:47:43
Color range                              : Limited
Color primaries                          : BT.709
Transfer characteristics                 : BT.709
Matrix coefficients                      : BT.709

Audio
ID                                       : 2
Format                                   : AAC
Format/Info                              : Advanced Audio Codec
Format profile                           : LC
Codec ID                                 : mp4a-40-2
Duration                                 : 1 min 27 s
Bit rate mode                            : Variable
Bit rate                                 : 197 kb/s
Channel(s)                               : 2 channels
Channel positions                        : Front: L R
Sampling rate                            : 48.0 kHz
Frame rate                               : 46.875 FPS (1024 SPF)
Compression mode                         : Lossy
Stream size                              : 2.06 MiB (1%)
Language                                 : English
Encoded date                             : UTC 2017-12-23 22:47:43
Tagged date                              : UTC 2017-12-23 22:47:43
 

2004tobinator schrieb am 26.12.2017 um 17:48 Uhr

Nimm mal Hardwareencoding raus und probier dann nochmals.

Ich habe bei dem Export kein Hardwareencoding drin. Ledeglich beim Aufnehmen mit OBS.

geschi schrieb am 26.12.2017 um 18:52 Uhr

Ich habe bei dem Export kein Hardwareencoding drin.

Achja und was zeigt dein Screenshoot?

2004tobinator schrieb am 26.12.2017 um 19:07 Uhr

Bei mir steht dann im Fenster wenn es gerade Exportiert wird: kein Hardwareencoding

GuenthiG schrieb am 26.12.2017 um 21:07 Uhr

Kannst du mal eine Pixelprobe sehen lassen? Ich denke, du redest von Artefakte/Klötzchenbildung, die ich auch schon oft hatte, aber wohl aus anderen Gründen. Trotzdem würde ich die gerne mal sehen.

2004tobinator schrieb am 27.12.2017 um 01:09 Uhr

Ich hoffe dieses Bildmaterial reicht.

GuenthiG schrieb am 27.12.2017 um 08:47 Uhr

Für einen Gesamteindruck ist das etwas wenig.

2004tobinator schrieb am 27.12.2017 um 16:33 Uhr

Das ist in dem ganzen Video so.

Markus73 schrieb am 27.12.2017 um 17:30 Uhr

Das ist in dem ganzen Video so.

Mag ja sein. Es ändert trotzdem nichts daran, dass man auf dem Bildchen praktisch nichts sieht, was für eine Diagnose irgendeiner Art hilfreich wäre.

A380 schrieb am 27.12.2017 um 18:06 Uhr

Ich weiss nicht, ob es die richtige Richtung ins Ziel ist.

Wenn ich mir den Auszug von MediaInfo anschaue, so hat dein mit OBS erzeugtes Video einen MP4-Level von "High@L5.1".

Dieser Level wird nur bei wesendlich höheren Auflösungen/Bitraten" genutzt, als du sie hast (1920*1080). Der Output durch VDL wird richtigerweise mit Level 4.2 gemacht.

Ich vermute, das beim Erzeugen mit deinem OBS der MP4-Level auf 5.1 hoch gezogen wurde, was aber nicht zusammen passt mit 1920*1080. Hier passt irgendwie etwas nicht

Kannst du mal mit deinem OBS, Material im Level 4.2 (Full HD) erzeugen und dann auch in Level 4.2 (Full HD) wieder ausgeben.

Zuletzt geändert von A380 am 27.12.2017, 18:11, insgesamt 1-mal geändert.

Panasonic AG-AC90/X909 VDL2014/2016 Prem - WIN 7 Home 64Bit - ASUS P8P67 PRO - I5-2500K - 8GB DDR3, Nvidia 1050TI 4GB - 6 * 1TB Intern - Samsung SSD 240GB - ACER 27" - ShuttlePRO V2

2004tobinator schrieb am 27.12.2017 um 19:12 Uhr

Mhhh aber die Quelldatei hat sowas nicht... also die Datei gleich nach dem aufnehmen. Ich kann es erst morgen testen weil ich grad nicht zuhause bin.

A380 schrieb am 27.12.2017 um 19:24 Uhr

Mhhh aber die Quelldatei hat sowas nicht...

Die Quelldatei hat genau das Problem.

2004tobinator schrieb am 27.12.2017 um 19:40 Uhr

Mhhh aber die Quelldatei hat sowas nicht...

Damit meinte ich diese „ungenauheiten“ im Video

newpapa schrieb am 28.12.2017 um 13:50 Uhr

Hallo,

du schreibst zwar, dass du beim Export alles auf Standard gelassen hast. Der shot zeigt aber etwas anderes.

Mit welchen Bitraten hast du denn exportiert?

Dein Quellvideo hat 16000 kbit/s bei konstanter Bitrate. Dein Export hat max. 16000 bei variabler Bitrate. Da könnte ein Problem liegen. Bei variabler Bitrate wird bei geringer Änderung der Bildinhalte gespart, dafür muss dann bei größeren Änderungen kräftig zugelegt werden. Das geht aber nicht, wenn auf max. 16000 begrenzt ist.

Falls du also nicht schon mit höherer Bitrate exportiert hast, setze mal die Bitrate hoch.

2004tobinator schrieb am 28.12.2017 um 16:16 Uhr

d.h. Ich soll erstmal die 16000 kbit/s so lassen und die begrenzung auf 20000 stellen?

newpapa schrieb am 28.12.2017 um 16:47 Uhr

Hallo,

man weiß ja nicht, wie gut bei den konstanten 16000 kbit/s optimiert wurde.

Um festzustellen ob Du tatsächlich zu knapp eingestellt hast, macht es wenig Sinn an der unteren Grenze zu bleiben. Zum Test würde ich so ca 20000 Durchschnitt und 25000 max. wählen.

2004tobinator schrieb am 28.12.2017 um 19:07 Uhr

Ok auch wenn ich mit 16000 aufnehme?