MEP 2022 Importing MOV file Issues

Reyfox wrote on 2/24/2022, 7:50 AM

Greetings all!

Using MEP2022 Plus. I've imported a series of MOV wrapped UHD 4K 24P 4:2:2 files to be edited and used. Camera is Panasonic G9.

It seems that some of the video files have the appropriate thumbnail representations, while others do not and can not be dragged to the timeline. See screen shot below. There were no changes to the camera settings the entire time I was in Croatia. Suggestions?

Here is the MediaInfo of one of the files that will not show up:

Video
ID                                       : 1
Format                                   : AVC
Format/Info                              : Advanced Video Codec
Format profile                           : High 4:2:2@L5.1
Format settings                          : CABAC / 1 Ref Frames
Format settings, CABAC                   : Yes
Format settings, Reference frames        : 1 frame
Format settings, GOP                     : M=1, N=12
Codec ID                                 : avc1
Codec ID/Info                            : Advanced Video Coding
Duration                                 : 15 s 516 ms
Bit rate mode                            : Variable
Bit rate                                 : 150 Mb/s
Maximum bit rate                         : 180 Mb/s
Width                                    : 3 840 pixels
Height                                   : 2 160 pixels
Display aspect ratio                     : 16:9
Frame rate mode                          : Constant
Frame rate                               : 23.976 (24000/1001) FPS
Standard                                 : Component
Color space                              : YUV
Chroma subsampling                       : 4:2:2
Bit depth                                : 10 bits
Scan type                                : Progressive
Bits/(Pixel*Frame)                       : 0.753
Stream size                              : 277 MiB (95%)
Encoded date                             : UTC 2021-06-29 13:53:12
Tagged date                              : UTC 2021-06-29 13:53:12
Color range                              : Limited
Color primaries                          : BT.709
Transfer characteristics                 : BT.709
Matrix coefficients                      : BT.709
Codec configuration box                  : avcC

Audio
ID                                       : 2
Format                                   : PCM
Format settings                          : Big / Signed
Codec ID                                 : twos
Duration                                 : 15 s 516 ms
Bit rate mode                            : Constant
Bit rate                                 : 1 536 kb/s
Channel(s)                               : 2 channels
Channel layout                           : L R
Sampling rate                            : 48.0 kHz
Bit depth                                : 16 bits
Stream size                              : 2.84 MiB (1%)
Encoded date                             : UTC 2021-06-29 13:53:12
Tagged date                              : UTC 2021-06-29 13:53:12

 

Comments

Gid wrote on 2/24/2022, 8:05 AM

@Reyfox Hi, there was a conversation a little while ago about thumbnails not showing & 10 bit not being supported, if you didn't change the camera settings, can you inc a MediaInfo of one that does load,

https://www.magix.info/us/forum/no-4k-icon-thumbnails-and-poor-playback--1294185/#ca1757818

On my Windows folder if the icon is the media image thumbnail it loads no prob, but if it's just a VLC icon it sometimes doesn't load. 🤷‍♂️

Magix Movie Studio Platinum, from 2004-ish - Latest version,
Video Pro X (Latest)
Adobe After Effects,
Vegas Pro 20 (Latest build), 
HitFilm Pro,  
Boris Continuum, Sapphire, Silhouette Standalone + Plugin, 
Mocha Pro Standalone + Plugin, Optics,
Desktop PC Microsoft Windows 10 Pro - 64-Bit
ASUS PRO WS WRX80E-SAGE SE WIFI AMD Motherboard
AMD Ryzen Threadripper PRO 3975WX 3.5GHz 32 Core
Corsair iCUE H150i RGB PRO XT 360mm All-in-One Liquid CPU Cooler
RAM 256GB ( 8x Micron 32GB (1x 32GB) 2666MHz DDR4 RAM )
2x Western Digital Black SN850 2TB M.2-2280 SSD, 7000MB/s Read, 5100MB/s Write
(programs on one, project files on the other)
Graphics MSI GeForce RTX 3090 SUPRIM X 24GB OC GPU
ASUS ROG Thor 1200W Semi-Modular 80+ Platinum PSU 
Fractal Design Define 7 XL Dark TG Case with 3 Fans

I'm 53, I've been a UK joiner for 37yrs, apprentice trained & time served, I make videos about my work & post them on Youtube so that i can share what I've learnt over the yrs,
https://www.youtube.com/c/Gidjoiner

At the moment my filming is done with a Samsung Galaxy S21 Ultra 5G

Reyfox wrote on 2/24/2022, 8:22 AM

Thanks for the reply. The thumbnails are VLC generated. But dragging the clips to the timeline results in black preview, but the audio plays back. I changed the default player to MPC-BE and still no joy with thumbnails or playback on the timeline.

Here is the MediaInfo:

Video
ID                                       : 1
Format                                   : AVC
Format/Info                              : Advanced Video Codec
Format profile                           : High 4:2:2@L5.1
Format settings                          : CABAC / 1 Ref Frames
Format settings, CABAC                   : Yes
Format settings, Reference frames        : 1 frame
Format settings, GOP                     : M=1, N=12
Codec ID                                 : avc1
Codec ID/Info                            : Advanced Video Coding
Duration                                 : 12 s 513 ms
Bit rate mode                            : Variable
Bit rate                                 : 149 Mb/s
Maximum bit rate                         : 180 Mb/s
Width                                    : 3 840 pixels
Height                                   : 2 160 pixels
Display aspect ratio                     : 16:9
Frame rate mode                          : Constant
Frame rate                               : 23.976 (24000/1001) FPS
Standard                                 : Component
Color space                              : YUV
Chroma subsampling                       : 4:2:2
Bit depth                                : 10 bits
Scan type                                : Progressive
Bits/(Pixel*Frame)                       : 0.752
Stream size                              : 223 MiB (95%)
Encoded date                             : UTC 2021-06-30 13:06:14
Tagged date                              : UTC 2021-06-30 13:06:14
Color range                              : Limited
Color primaries                          : BT.709
Transfer characteristics                 : BT.709
Matrix coefficients                      : BT.709
Codec configuration box                  : avcC

Audio
ID                                       : 2
Format                                   : PCM
Format settings                          : Big / Signed
Codec ID                                 : twos
Duration                                 : 12 s 513 ms
Bit rate mode                            : Constant
Bit rate                                 : 1 536 kb/s
Channel(s)                               : 2 channels
Channel layout                           : L R
Sampling rate                            : 48.0 kHz
Bit depth                                : 16 bits
Stream size                              : 2.29 MiB (1%)
Encoded date                             : UTC 2021-06-30 13:06:14
Tagged date                              : UTC 2021-06-30 13:06:14

Reyfox wrote on 2/24/2022, 8:29 AM

@Gid as a side note, Video Pro X 11 has no problems with the same footage..... all the thumbnails are present and each clip plays back on the timeline as it should.

Gid wrote on 2/24/2022, 8:47 AM

@Reyfox Yeah, i don't have VPX but i do notice a difference with which Vegas will load & which MEP will load 🤷‍♂️

Magix Movie Studio Platinum, from 2004-ish - Latest version,
Video Pro X (Latest)
Adobe After Effects,
Vegas Pro 20 (Latest build), 
HitFilm Pro,  
Boris Continuum, Sapphire, Silhouette Standalone + Plugin, 
Mocha Pro Standalone + Plugin, Optics,
Desktop PC Microsoft Windows 10 Pro - 64-Bit
ASUS PRO WS WRX80E-SAGE SE WIFI AMD Motherboard
AMD Ryzen Threadripper PRO 3975WX 3.5GHz 32 Core
Corsair iCUE H150i RGB PRO XT 360mm All-in-One Liquid CPU Cooler
RAM 256GB ( 8x Micron 32GB (1x 32GB) 2666MHz DDR4 RAM )
2x Western Digital Black SN850 2TB M.2-2280 SSD, 7000MB/s Read, 5100MB/s Write
(programs on one, project files on the other)
Graphics MSI GeForce RTX 3090 SUPRIM X 24GB OC GPU
ASUS ROG Thor 1200W Semi-Modular 80+ Platinum PSU 
Fractal Design Define 7 XL Dark TG Case with 3 Fans

I'm 53, I've been a UK joiner for 37yrs, apprentice trained & time served, I make videos about my work & post them on Youtube so that i can share what I've learnt over the yrs,
https://www.youtube.com/c/Gidjoiner

At the moment my filming is done with a Samsung Galaxy S21 Ultra 5G

Reyfox wrote on 2/24/2022, 9:04 AM

@Gid I have no problems loading the same files with Vegas Pro either. The puzzling thing is that some load and some don't and I am curious as to "why".

As you can see by my above screen shot that there is no way I can edit my Croatia footage since most of it is not available to me. I would love to have a "fix" for this.

Gid wrote on 2/24/2022, 10:49 AM

@Reyfox Hi, i presume the second MediaInfo you posted does load into MEP?

I put them side by side, they are practically identical 🤷‍♂️

Magix Movie Studio Platinum, from 2004-ish - Latest version,
Video Pro X (Latest)
Adobe After Effects,
Vegas Pro 20 (Latest build), 
HitFilm Pro,  
Boris Continuum, Sapphire, Silhouette Standalone + Plugin, 
Mocha Pro Standalone + Plugin, Optics,
Desktop PC Microsoft Windows 10 Pro - 64-Bit
ASUS PRO WS WRX80E-SAGE SE WIFI AMD Motherboard
AMD Ryzen Threadripper PRO 3975WX 3.5GHz 32 Core
Corsair iCUE H150i RGB PRO XT 360mm All-in-One Liquid CPU Cooler
RAM 256GB ( 8x Micron 32GB (1x 32GB) 2666MHz DDR4 RAM )
2x Western Digital Black SN850 2TB M.2-2280 SSD, 7000MB/s Read, 5100MB/s Write
(programs on one, project files on the other)
Graphics MSI GeForce RTX 3090 SUPRIM X 24GB OC GPU
ASUS ROG Thor 1200W Semi-Modular 80+ Platinum PSU 
Fractal Design Define 7 XL Dark TG Case with 3 Fans

I'm 53, I've been a UK joiner for 37yrs, apprentice trained & time served, I make videos about my work & post them on Youtube so that i can share what I've learnt over the yrs,
https://www.youtube.com/c/Gidjoiner

At the moment my filming is done with a Samsung Galaxy S21 Ultra 5G

Reyfox wrote on 2/24/2022, 10:59 AM

@Gid no, that media doesn't play. All the videos were shot with the same camera and same camera settings. Puzzling for sure. There is no thumbnail for that clip, and when placing it on the timeline, the clip fills up with white images instead of images from the actual clip. Only the audio plays...

Gid wrote on 2/24/2022, 11:02 AM

@Reyfox So both of the MediaInfo you posted don't load into MEP? I did ask for one that did play as you said the first one didn't,

Can you upload MediaInfo of 2, one that doesn't play & one that does, ideally ones that were created one after the other,

I presume one of these play & the other doesn't

Last changed by Gid on 2/24/2022, 11:12 AM, changed a total of 1 times.

Magix Movie Studio Platinum, from 2004-ish - Latest version,
Video Pro X (Latest)
Adobe After Effects,
Vegas Pro 20 (Latest build), 
HitFilm Pro,  
Boris Continuum, Sapphire, Silhouette Standalone + Plugin, 
Mocha Pro Standalone + Plugin, Optics,
Desktop PC Microsoft Windows 10 Pro - 64-Bit
ASUS PRO WS WRX80E-SAGE SE WIFI AMD Motherboard
AMD Ryzen Threadripper PRO 3975WX 3.5GHz 32 Core
Corsair iCUE H150i RGB PRO XT 360mm All-in-One Liquid CPU Cooler
RAM 256GB ( 8x Micron 32GB (1x 32GB) 2666MHz DDR4 RAM )
2x Western Digital Black SN850 2TB M.2-2280 SSD, 7000MB/s Read, 5100MB/s Write
(programs on one, project files on the other)
Graphics MSI GeForce RTX 3090 SUPRIM X 24GB OC GPU
ASUS ROG Thor 1200W Semi-Modular 80+ Platinum PSU 
Fractal Design Define 7 XL Dark TG Case with 3 Fans

I'm 53, I've been a UK joiner for 37yrs, apprentice trained & time served, I make videos about my work & post them on Youtube so that i can share what I've learnt over the yrs,
https://www.youtube.com/c/Gidjoiner

At the moment my filming is done with a Samsung Galaxy S21 Ultra 5G

Reyfox wrote on 2/24/2022, 11:49 AM

Ok.... @Gid

Clip 697 that does play:
Video
ID                                       : 1
Format                                   : AVC
Format/Info                              : Advanced Video Codec
Format profile                           : High@L5.2
Format settings                          : CABAC / 2 Ref Frames
Format settings, CABAC                   : Yes
Format settings, Reference frames        : 2 frames
Codec ID                                 : avc1
Codec ID/Info                            : Advanced Video Coding
Duration                                 : 23 s 520 ms
Bit rate mode                            : Variable
Bit rate                                 : 143 Mb/s
Maximum bit rate                         : 158 Mb/s
Width                                    : 3 840 pixels
Height                                   : 2 160 pixels
Display aspect ratio                     : 16:9
Frame rate mode                          : Constant
Frame rate                               : 50.000 FPS
Color space                              : YUV
Chroma subsampling                       : 4:2:0
Bit depth                                : 8 bits
Scan type                                : Progressive
Bits/(Pixel*Frame)                       : 0.345
Stream size                              : 401 MiB (99%)
Encoded date                             : UTC 2021-06-29 13:56:12
Tagged date                              : UTC 2021-06-29 13:56:12
Color range                              : Limited
Color primaries                          : BT.709
Transfer characteristics                 : BT.709
Matrix coefficients                      : BT.709
Codec configuration box                  : avcC

Audio
ID                                       : 2
Format                                   : PCM
Format settings                          : Big / Signed
Codec ID                                 : twos
Duration                                 : 23 s 520 ms
Bit rate mode                            : Constant
Bit rate                                 : 1 536 kb/s
Channel(s)                               : 2 channels
Channel layout                           : L R
Sampling rate                            : 48.0 kHz
Bit depth                                : 16 bits
Stream size                              : 4.31 MiB (1%)
Encoded date                             : UTC 2021-06-29 13:56:12
Tagged date                              : UTC 2021-06-29 13:56:12

Clip 696 that DOES NOT PLAY:
Video
ID                                       : 1
Format                                   : AVC
Format/Info                              : Advanced Video Codec
Format profile                           : High 4:2:2@L5.1
Format settings                          : CABAC / 1 Ref Frames
Format settings, CABAC                   : Yes
Format settings, Reference frames        : 1 frame
Format settings, GOP                     : M=1, N=12
Codec ID                                 : avc1
Codec ID/Info                            : Advanced Video Coding
Duration                                 : 15 s 516 ms
Bit rate mode                            : Variable
Bit rate                                 : 150 Mb/s
Maximum bit rate                         : 180 Mb/s
Width                                    : 3 840 pixels
Height                                   : 2 160 pixels
Display aspect ratio                     : 16:9
Frame rate mode                          : Constant
Frame rate                               : 23.976 (24000/1001) FPS
Standard                                 : Component
Color space                              : YUV
Chroma subsampling                       : 4:2:2
Bit depth                                : 10 bits
Scan type                                : Progressive
Bits/(Pixel*Frame)                       : 0.753
Stream size                              : 277 MiB (95%)
Encoded date                             : UTC 2021-06-29 13:53:12
Tagged date                              : UTC 2021-06-29 13:53:12
Color range                              : Limited
Color primaries                          : BT.709
Transfer characteristics                 : BT.709
Matrix coefficients                      : BT.709
Codec configuration box                  : avcC

Audio
ID                                       : 2
Format                                   : PCM
Format settings                          : Big / Signed
Codec ID                                 : twos
Duration                                 : 15 s 516 ms
Bit rate mode                            : Constant
Bit rate                                 : 1 536 kb/s
Channel(s)                               : 2 channels
Channel layout                           : L R
Sampling rate                            : 48.0 kHz
Bit depth                                : 16 bits
Stream size                              : 2.84 MiB (1%)
Encoded date                             : UTC 2021-06-29 13:53:12
Tagged date                              : UTC 2021-06-29 13:53:12

 

Gid wrote on 2/24/2022, 12:19 PM

@Reyfox 😁 Thanks 👍 'There were no changes to the camera settings' but something happens, there's quite a few changes, fr rate, bit depth, I don't know enough to decipher the info, but is there like zoom or colour difference, night/day mode, brightness, that could make the camera change the settings while filming, ?

Last changed by Gid on 2/24/2022, 12:35 PM, changed a total of 2 times.

Magix Movie Studio Platinum, from 2004-ish - Latest version,
Video Pro X (Latest)
Adobe After Effects,
Vegas Pro 20 (Latest build), 
HitFilm Pro,  
Boris Continuum, Sapphire, Silhouette Standalone + Plugin, 
Mocha Pro Standalone + Plugin, Optics,
Desktop PC Microsoft Windows 10 Pro - 64-Bit
ASUS PRO WS WRX80E-SAGE SE WIFI AMD Motherboard
AMD Ryzen Threadripper PRO 3975WX 3.5GHz 32 Core
Corsair iCUE H150i RGB PRO XT 360mm All-in-One Liquid CPU Cooler
RAM 256GB ( 8x Micron 32GB (1x 32GB) 2666MHz DDR4 RAM )
2x Western Digital Black SN850 2TB M.2-2280 SSD, 7000MB/s Read, 5100MB/s Write
(programs on one, project files on the other)
Graphics MSI GeForce RTX 3090 SUPRIM X 24GB OC GPU
ASUS ROG Thor 1200W Semi-Modular 80+ Platinum PSU 
Fractal Design Define 7 XL Dark TG Case with 3 Fans

I'm 53, I've been a UK joiner for 37yrs, apprentice trained & time served, I make videos about my work & post them on Youtube so that i can share what I've learnt over the yrs,
https://www.youtube.com/c/Gidjoiner

At the moment my filming is done with a Samsung Galaxy S21 Ultra 5G

Gid wrote on 2/24/2022, 12:32 PM

In the one that does not play i see - Format settings, GOP : M=1, N=12 , so i Googled it to see if i could learn something, I understand GOP (sort of) but what i found on Google is beyond me, 🤯😂

Does 'no-scenecut or --min-keyint' mean anything to you?

Would pausing the recording have any effect on the recording?

Last changed by Gid on 2/24/2022, 12:33 PM, changed a total of 1 times.

Magix Movie Studio Platinum, from 2004-ish - Latest version,
Video Pro X (Latest)
Adobe After Effects,
Vegas Pro 20 (Latest build), 
HitFilm Pro,  
Boris Continuum, Sapphire, Silhouette Standalone + Plugin, 
Mocha Pro Standalone + Plugin, Optics,
Desktop PC Microsoft Windows 10 Pro - 64-Bit
ASUS PRO WS WRX80E-SAGE SE WIFI AMD Motherboard
AMD Ryzen Threadripper PRO 3975WX 3.5GHz 32 Core
Corsair iCUE H150i RGB PRO XT 360mm All-in-One Liquid CPU Cooler
RAM 256GB ( 8x Micron 32GB (1x 32GB) 2666MHz DDR4 RAM )
2x Western Digital Black SN850 2TB M.2-2280 SSD, 7000MB/s Read, 5100MB/s Write
(programs on one, project files on the other)
Graphics MSI GeForce RTX 3090 SUPRIM X 24GB OC GPU
ASUS ROG Thor 1200W Semi-Modular 80+ Platinum PSU 
Fractal Design Define 7 XL Dark TG Case with 3 Fans

I'm 53, I've been a UK joiner for 37yrs, apprentice trained & time served, I make videos about my work & post them on Youtube so that i can share what I've learnt over the yrs,
https://www.youtube.com/c/Gidjoiner

At the moment my filming is done with a Samsung Galaxy S21 Ultra 5G

Reyfox wrote on 2/24/2022, 12:34 PM

@Gid I think I misspoke. Looking at the files in the directory with MediaInfo, it seems that every clip (I have to rush and get wife from work) that doesn't import into MEP has a Chroma Subsample of 4:2:2 and not 4:2:0, and also have a bit depth of 10bit vs 8bit.

So it seems that MEP can not import 10bit 422 files.

I never "pause" a recording, I can't. Each clip is a new recording.

Gid wrote on 2/24/2022, 12:43 PM

@Reyfox btw i've spent a couple of wks touring Croatia & driven through it a few times, in the 90s when they weren't shooting at each other, my friends lived in Crete, pretty much everything there gets imported so some things are expensive, at that time Aldi supermarket were selling tins of Baked Beans for 3p, so we'd fill an old van with cheap tins, beans, Tuna, & boxes of Rizla, then drive to Crete, flog them & the van 😁

Magix Movie Studio Platinum, from 2004-ish - Latest version,
Video Pro X (Latest)
Adobe After Effects,
Vegas Pro 20 (Latest build), 
HitFilm Pro,  
Boris Continuum, Sapphire, Silhouette Standalone + Plugin, 
Mocha Pro Standalone + Plugin, Optics,
Desktop PC Microsoft Windows 10 Pro - 64-Bit
ASUS PRO WS WRX80E-SAGE SE WIFI AMD Motherboard
AMD Ryzen Threadripper PRO 3975WX 3.5GHz 32 Core
Corsair iCUE H150i RGB PRO XT 360mm All-in-One Liquid CPU Cooler
RAM 256GB ( 8x Micron 32GB (1x 32GB) 2666MHz DDR4 RAM )
2x Western Digital Black SN850 2TB M.2-2280 SSD, 7000MB/s Read, 5100MB/s Write
(programs on one, project files on the other)
Graphics MSI GeForce RTX 3090 SUPRIM X 24GB OC GPU
ASUS ROG Thor 1200W Semi-Modular 80+ Platinum PSU 
Fractal Design Define 7 XL Dark TG Case with 3 Fans

I'm 53, I've been a UK joiner for 37yrs, apprentice trained & time served, I make videos about my work & post them on Youtube so that i can share what I've learnt over the yrs,
https://www.youtube.com/c/Gidjoiner

At the moment my filming is done with a Samsung Galaxy S21 Ultra 5G

Gid wrote on 2/24/2022, 1:02 PM

@Reyfox Yep i noticed 10bit & the 422, I can't export as AVC with 10bit 422, but i can AVI 10bit 422, that rendered file doesn't load into MEP but does into Vegas 🤷‍♂️

Magix Movie Studio Platinum, from 2004-ish - Latest version,
Video Pro X (Latest)
Adobe After Effects,
Vegas Pro 20 (Latest build), 
HitFilm Pro,  
Boris Continuum, Sapphire, Silhouette Standalone + Plugin, 
Mocha Pro Standalone + Plugin, Optics,
Desktop PC Microsoft Windows 10 Pro - 64-Bit
ASUS PRO WS WRX80E-SAGE SE WIFI AMD Motherboard
AMD Ryzen Threadripper PRO 3975WX 3.5GHz 32 Core
Corsair iCUE H150i RGB PRO XT 360mm All-in-One Liquid CPU Cooler
RAM 256GB ( 8x Micron 32GB (1x 32GB) 2666MHz DDR4 RAM )
2x Western Digital Black SN850 2TB M.2-2280 SSD, 7000MB/s Read, 5100MB/s Write
(programs on one, project files on the other)
Graphics MSI GeForce RTX 3090 SUPRIM X 24GB OC GPU
ASUS ROG Thor 1200W Semi-Modular 80+ Platinum PSU 
Fractal Design Define 7 XL Dark TG Case with 3 Fans

I'm 53, I've been a UK joiner for 37yrs, apprentice trained & time served, I make videos about my work & post them on Youtube so that i can share what I've learnt over the yrs,
https://www.youtube.com/c/Gidjoiner

At the moment my filming is done with a Samsung Galaxy S21 Ultra 5G

Reyfox wrote on 2/24/2022, 1:39 PM

@Gid maybe that's the distinction they want between "consumer" and "pro" versions....

We have friends in Croatia near Zagreb. From there we went to Plitvice Lakes and headed to Pag/Novalja. Last trip was to Split and Trogir.

CubeAce wrote on 2/24/2022, 2:07 PM

@Reyfox

Hi Stephen.

I found the following information in the VPX 11 manual.

But there is additional information in the MEP 2022 manual.

Ray.

Windows 10 Enterprise. Version 21H2 OS build 19044.2075. Direct X 12.1 latest hardware updates for Western Digital hard drives. Page file space 4.75GB.

Asus ROG STRIX Z390-F Gaming motherboard Rev 1.xx with Supreme FX inboard audio using the S1220A code. Driver No 6.0.8960.1 Bios version 1401

Intel i9900K Coffee Lake 3.6 to 5.1GHz CPU with Intel UHD 630 Graphics .Driver version 31.0.101.2111 with 32GB of 3200MHz Corsair DDR4 ram.

1000 watt EVGA modular power supply.

1 x 250GB SSD D: drive for C: drive backup 1 x 250GB SamSung Evo 970 drive for Operating System. + x2 WD BLACK 2TB internal SATA 7,200rpm hard drives.I for internal projects 1 for Library clips/sounds/music/stills./backup of working projects. 1x WD RED 2TB drive. Total 12TB of four external WD drives for backup.

Gigabyte NVIDIA G Force GTX 1650 Super . nVidia gaming driver version 31.0.15.1694 1280xCUDA cores Direct X 12.1. Memory interface 128bit Memory bandwidth 192.03GB/s 4GB of dedicated GDDR6 video memory, shared system memory 16307MB PCi Express x16 Gen3.

Running MEP Premium 21.0.2.138 and VPX 18.0.1.95 (UDP3)

M Audio Axiom AIR Mini MIDI keyboard Ver 5.10.0.3507

Reyfox wrote on 2/24/2022, 2:26 PM

@CubeAce then according to what you posted, 422 10bit should be usable in MEP2022?

 

Gid wrote on 2/24/2022, 2:35 PM

1, HEVC 10bit loads no prob,

2. Prores ,mov 422 16bit loads but no sound,

3, Prores .mov 444 16bit just a black screen,

4. MPEG-2 HDV 16bit loads no prob,

 

Magix Movie Studio Platinum, from 2004-ish - Latest version,
Video Pro X (Latest)
Adobe After Effects,
Vegas Pro 20 (Latest build), 
HitFilm Pro,  
Boris Continuum, Sapphire, Silhouette Standalone + Plugin, 
Mocha Pro Standalone + Plugin, Optics,
Desktop PC Microsoft Windows 10 Pro - 64-Bit
ASUS PRO WS WRX80E-SAGE SE WIFI AMD Motherboard
AMD Ryzen Threadripper PRO 3975WX 3.5GHz 32 Core
Corsair iCUE H150i RGB PRO XT 360mm All-in-One Liquid CPU Cooler
RAM 256GB ( 8x Micron 32GB (1x 32GB) 2666MHz DDR4 RAM )
2x Western Digital Black SN850 2TB M.2-2280 SSD, 7000MB/s Read, 5100MB/s Write
(programs on one, project files on the other)
Graphics MSI GeForce RTX 3090 SUPRIM X 24GB OC GPU
ASUS ROG Thor 1200W Semi-Modular 80+ Platinum PSU 
Fractal Design Define 7 XL Dark TG Case with 3 Fans

I'm 53, I've been a UK joiner for 37yrs, apprentice trained & time served, I make videos about my work & post them on Youtube so that i can share what I've learnt over the yrs,
https://www.youtube.com/c/Gidjoiner

At the moment my filming is done with a Samsung Galaxy S21 Ultra 5G

CubeAce wrote on 2/24/2022, 2:48 PM

@Reyfox @Gid

Assuming the whole component chain including using the correct monitor leads as well as capable supporting monitors are in use, the implied assumption should be yes. It is beyond my humble set up to confirm or deny such claims. Again, hardware dependency. Wouldn't you know it 😉🤨🤐

Ray.

Windows 10 Enterprise. Version 21H2 OS build 19044.2075. Direct X 12.1 latest hardware updates for Western Digital hard drives. Page file space 4.75GB.

Asus ROG STRIX Z390-F Gaming motherboard Rev 1.xx with Supreme FX inboard audio using the S1220A code. Driver No 6.0.8960.1 Bios version 1401

Intel i9900K Coffee Lake 3.6 to 5.1GHz CPU with Intel UHD 630 Graphics .Driver version 31.0.101.2111 with 32GB of 3200MHz Corsair DDR4 ram.

1000 watt EVGA modular power supply.

1 x 250GB SSD D: drive for C: drive backup 1 x 250GB SamSung Evo 970 drive for Operating System. + x2 WD BLACK 2TB internal SATA 7,200rpm hard drives.I for internal projects 1 for Library clips/sounds/music/stills./backup of working projects. 1x WD RED 2TB drive. Total 12TB of four external WD drives for backup.

Gigabyte NVIDIA G Force GTX 1650 Super . nVidia gaming driver version 31.0.15.1694 1280xCUDA cores Direct X 12.1. Memory interface 128bit Memory bandwidth 192.03GB/s 4GB of dedicated GDDR6 video memory, shared system memory 16307MB PCi Express x16 Gen3.

Running MEP Premium 21.0.2.138 and VPX 18.0.1.95 (UDP3)

M Audio Axiom AIR Mini MIDI keyboard Ver 5.10.0.3507

Reyfox wrote on 2/24/2022, 3:39 PM

@CubeAce with VPX 11, they all load and display properly. It's not a hardware issue on my side. It's figuring out where something might have went wrong.

Mind you, it's not the end of the world so to speak, but if it's supported, I'd like it to be so. But who gets what they like/want with editing software....

Gid wrote on 2/24/2022, 4:10 PM

@Reyfox I'm not sure what you mean by 'went wrong' but all of the files i mentioned in my last comment load no prob in Vegas with audio, I think it's just something about MEP's import abilities 🤷‍♂️ I've come to accept that some files just don't load in MEP.

Magix Movie Studio Platinum, from 2004-ish - Latest version,
Video Pro X (Latest)
Adobe After Effects,
Vegas Pro 20 (Latest build), 
HitFilm Pro,  
Boris Continuum, Sapphire, Silhouette Standalone + Plugin, 
Mocha Pro Standalone + Plugin, Optics,
Desktop PC Microsoft Windows 10 Pro - 64-Bit
ASUS PRO WS WRX80E-SAGE SE WIFI AMD Motherboard
AMD Ryzen Threadripper PRO 3975WX 3.5GHz 32 Core
Corsair iCUE H150i RGB PRO XT 360mm All-in-One Liquid CPU Cooler
RAM 256GB ( 8x Micron 32GB (1x 32GB) 2666MHz DDR4 RAM )
2x Western Digital Black SN850 2TB M.2-2280 SSD, 7000MB/s Read, 5100MB/s Write
(programs on one, project files on the other)
Graphics MSI GeForce RTX 3090 SUPRIM X 24GB OC GPU
ASUS ROG Thor 1200W Semi-Modular 80+ Platinum PSU 
Fractal Design Define 7 XL Dark TG Case with 3 Fans

I'm 53, I've been a UK joiner for 37yrs, apprentice trained & time served, I make videos about my work & post them on Youtube so that i can share what I've learnt over the yrs,
https://www.youtube.com/c/Gidjoiner

At the moment my filming is done with a Samsung Galaxy S21 Ultra 5G

CubeAce wrote on 2/24/2022, 5:12 PM

@Reyfox

👍👍👍👍 for VPX 11.

Windows 10 Enterprise. Version 21H2 OS build 19044.2075. Direct X 12.1 latest hardware updates for Western Digital hard drives. Page file space 4.75GB.

Asus ROG STRIX Z390-F Gaming motherboard Rev 1.xx with Supreme FX inboard audio using the S1220A code. Driver No 6.0.8960.1 Bios version 1401

Intel i9900K Coffee Lake 3.6 to 5.1GHz CPU with Intel UHD 630 Graphics .Driver version 31.0.101.2111 with 32GB of 3200MHz Corsair DDR4 ram.

1000 watt EVGA modular power supply.

1 x 250GB SSD D: drive for C: drive backup 1 x 250GB SamSung Evo 970 drive for Operating System. + x2 WD BLACK 2TB internal SATA 7,200rpm hard drives.I for internal projects 1 for Library clips/sounds/music/stills./backup of working projects. 1x WD RED 2TB drive. Total 12TB of four external WD drives for backup.

Gigabyte NVIDIA G Force GTX 1650 Super . nVidia gaming driver version 31.0.15.1694 1280xCUDA cores Direct X 12.1. Memory interface 128bit Memory bandwidth 192.03GB/s 4GB of dedicated GDDR6 video memory, shared system memory 16307MB PCi Express x16 Gen3.

Running MEP Premium 21.0.2.138 and VPX 18.0.1.95 (UDP3)

M Audio Axiom AIR Mini MIDI keyboard Ver 5.10.0.3507

Reyfox wrote on 2/24/2022, 5:21 PM

@Gid when I meant "what went wrong" is that @CubeAce posted information that MEP "should" be able to handle 422 10bit.

Yes, Vegas has no problem with any videos I can create.

Gid wrote on 2/24/2022, 6:37 PM

@Reyfox 👍 I've just spent ages going through all programs, converters & export formats, i can only export/render as .mov 422 or HEVC 10bit, but not AVC 10bit 422 😂🤷‍♂️👍

Magix Movie Studio Platinum, from 2004-ish - Latest version,
Video Pro X (Latest)
Adobe After Effects,
Vegas Pro 20 (Latest build), 
HitFilm Pro,  
Boris Continuum, Sapphire, Silhouette Standalone + Plugin, 
Mocha Pro Standalone + Plugin, Optics,
Desktop PC Microsoft Windows 10 Pro - 64-Bit
ASUS PRO WS WRX80E-SAGE SE WIFI AMD Motherboard
AMD Ryzen Threadripper PRO 3975WX 3.5GHz 32 Core
Corsair iCUE H150i RGB PRO XT 360mm All-in-One Liquid CPU Cooler
RAM 256GB ( 8x Micron 32GB (1x 32GB) 2666MHz DDR4 RAM )
2x Western Digital Black SN850 2TB M.2-2280 SSD, 7000MB/s Read, 5100MB/s Write
(programs on one, project files on the other)
Graphics MSI GeForce RTX 3090 SUPRIM X 24GB OC GPU
ASUS ROG Thor 1200W Semi-Modular 80+ Platinum PSU 
Fractal Design Define 7 XL Dark TG Case with 3 Fans

I'm 53, I've been a UK joiner for 37yrs, apprentice trained & time served, I make videos about my work & post them on Youtube so that i can share what I've learnt over the yrs,
https://www.youtube.com/c/Gidjoiner

At the moment my filming is done with a Samsung Galaxy S21 Ultra 5G