Slowmotion sound

ulflson wrote on 4/18/2020, 9:50 AM

I've just got my Magix Video Saver 8th edition.
When I've copied my VHS to the PC, the sound is crazy.
During the recording, the sound is as expected, but when I play the recorded file on the computer, it sounds like it is in slowmotion.

 

Computer specification
Windows 10 Home 64 bit
CPU Intel Core i5-9400
RAM: 16 GB
Disk: Samsung SSD.
Disksize: c:\ 237 GB (28,4 GB free) d:\ 237 GB (32,9 GB free)

Comments

emmrecs wrote on 4/19/2020, 3:41 AM

@ulflson

Welcome to the Magix forums.

This "sounds" rather like the problem of mis-matched Sample Rates. Can you download and install the free MediaInfo utility and point it at your video file on your computer. Please copy and paste to your reply the results of the Text view.

Then (and I don't know where this setting might be in your software) can you check the Audio Sample Rate that the software is running at? A screenshot of any audio settings would be helpful!

Finally, can you check the sample rate that Windows is operating at? To do this, click on the speaker icon at the bottom right corner of your desktop screen and choose "Open Sound Settings". Scroll down on that screen and choose "Related Settings>Sound Control Panel". On that screen choose your Sound Device (you may only have one) and double-click on its name. This will open its Properties screen. Choose the Advanced tab and see what is set there as the Default Format. That line will include a figure of either 44.1kHz or 48kHz. I suspect yours will be showing the former, when it needs to be the latter. If so, there is a dropdown at the end of the line showing that figure; if you click on it you will see the options offered by your sound card. Try to select the one that matches what your Video Easy software expects (the one shown when you checked that Audio Sample Rate, above).

HTH

Jeff
Forum Moderator

Win 10 Pro 64 bit, Intel i7 Quad Core 6700K @ 4GHz, 32 GB RAM, AMD Radeon R7 360 and Intel HD530 Graphics, MOTU 8-Pre f/w audio interface, VPX, MEP, Music Maker, Photo Story Deluxe, Photo Manager Deluxe, Xara 3D Maker 7, Reaper, Adobe Audition CS6 and CC, 2 x Canon HG10 cameras, 1 x Canon EOS 600D

ulflson wrote on 4/22/2020, 2:59 PM

Hey.
Here is the information från Mediainfo. I had to export the file to get this information.

General
Complete name                            : C:\Users\ulfls\Videos\test.WMV
Format                                   : Windows Media
File size                                : 51.8 MiB
Duration                                 : 1 min 5 s
Overall bit rate mode                    : Variable
Overall bit rate                         : 6 596 kb/s
Maximum Overall bit rate                 : 7 997 kb/s
Encoded date                             : UTC 2020-04-22 19:53:42.616

Video
ID                                       : 2
Format                                   : VC-1
Format profile                           : MP@ML
Codec ID                                 : WMV3
Codec ID/Info                            : Windows Media Video 9
Codec ID/Hint                            : WMV3
Description of the codec                 : Windows Media Video 9 - Professional
Duration                                 : 1 min 5 s
Bit rate mode                            : Variable
Bit rate                                 : 6 401 kb/s
Width                                    : 720 pixels
Height                                   : 576 pixels
Display aspect ratio                     : 5:4
Frame rate                               : 25.000 FPS
Standard                                 : PAL
Bit depth                                : 8 bits
Compression mode                         : Lossy
Bits/(Pixel*Frame)                       : 0.617
Stream size                              : 50.2 MiB (97%)
Language                                 : Swedish
Duration_Source                          : General_Duration

Audio
ID                                       : 1
Format                                   : WMA
Format version                           : Version 2
Codec ID                                 : 161
Codec ID/Info                            : Windows Media Audio
Description of the codec                 : Windows Media Audio 9.2 - 160 kbps, 48 kHz, stereo (A/V) 1-pass CBR
Duration                                 : 1 min 5 s
Bit rate mode                            : Constant
Bit rate                                 : 160 kb/s
Channel(s)                               : 2 channels
Sampling rate                            : 48.0 kHz
Bit depth                                : 16 bits
Stream size                              : 1.26 MiB (2%)
Language                                 : Swedish
Duration_Source                          : General_Duration

 

When checking sound settings in Windows, I can see that my settings is 24 bits, 48 kHz (Studio quality)